Limp bizkit break stuff mp3無料ダウンロード

2007年1月25日 Breaking Benjamin? http://www.google.com/search?hl=ja&client=safari&rls=ja-jp&q=Lyrics+so+slowly+every+little+things+what+to+do+night+day+don%27t+ これダウンロードできますでしょうか? DLは全部無料で変な登録もなかったよ。 131 :名盤さん:2007/01/27(土) 23:36:29 ID:rjyujhja: ttp://up2.viploader.net/mini/src/viploader104714.mp3 Limp Bizkit - Take A Look Around

Découvrez The Sun Comes Out Tonight [Explicit] de Filter sur Amazon Music. Écoutez de la musique en streaming sans publicité ou achetez des CDs et MP3 maintenant sur Amazon.fr. 2013年6月4日 京都府立植物園 ビーズショップ 西行法師 会いたかった mp3 download ビヨンセ・ノウルズ カレンカーペンター 烈火の炎 風子 セイナ・セイン 蜜柑 とらぶる 日経リサーチの地域ブランド調査 声優 まとめ キム・ソクフン 無料ダウンロード音楽 大阪よどがわ 軟腐病 一岡 レール&レンタカー break blade mp4 Tボラン 紙オムツ ウィニペグ 人身傷害保険 moses 市丸博司 jon faddis 配信開始 マカフィー 削除 Limp Bizkit モタ男 四角いシュークリーム 株式会社mar 有村架純 画像 oj&st 巌華園 ねぎ 通販 

2019/02/04

2019/06/30 Search Results for: Limpbizkit MP3 & MP4 Download lagu Limpbizkit MP3 dapat kamu download secara gratis di Lagu.Untuk melihat detail lagu Limpbizkit klik salah satu judul yang cocok,kemudian untuk link download Limpbizkit ada di halaman berikutnya. More Limp Bizkit lyrics and MP3 downloads More popular Limp Bizkit mp3 songs include: Break Stuff Lyrics , Nookie Lyrics , Faith Lyrics , Intro Lyrics , Get A Life Lyrics , Bring It Back Lyrics , Killer in You Lyrics , Outro Lyrics , Douche Bag Lyrics , Walking Away Lyrics , Show Me What You Got Lyrics , EAT YOU ALIVE Lyrics . With your consent, we would like to use cookies and similar technologies to enhance your experience with our service, for analytics, and for advertising purposes. You 2014/12/31 Descargar Limp Bizkit MP3, baja Limp Bizkit y escucha en tu celular, audio y video en alta Calidad HD. Descargar Mp3 Limp Bizkit en alta calidad (HD), lo nuevo de sus canciones, remixes, acusticos, acapelas y los videos que estan de moda este presente 2020, bajar canciones de Limp Bizkit en los diferentes formatos de audio y video disponibles; MP3, … Limp bizkitはラップ系の音楽を聴く人にお勧めします。主なバンド(アーティスト)はLinkin park,Eminemなどです。新しいCDも出る予定みたいですが、まずはこれを聴いてください。僕の見解ですが、鋭いギターも入ってきてハードロック、ヘヴィメタルが好きな人は好きになれると思います。

2011/01/05

Break Stuff Back to album Significant Other by Limp Bizkit Preview: 30 sec only Quality: 256 kbps Size: 5.06 Mb Length: 2:46 Download Track Break Stuff It's just one of those days You don't really know why But you wanna Free Download Limp Bizkit Break Stuff Uncensored.mp3, Uploaded By:: Clauhaley, Size: , Duration: , Bitrate: 192 Kbps. 2009/10/05 Top Mp3 Charts Limp Bizkit mp3 download Limp Bizkit - Rollin' (Air Raid Vehicle) size:5.74MB - duration:04:05 Play download Limp Bizkit - Break Stuff size:3.98MB - duration:02:50 Play download Limp Bizkit - My Generation size: midi genres/directions

Android 用のLimp Bizkit Lyrics apk 1.1 をダウンロード。 リンプ・ビズキット曲の歌詞

Limp Bizkit Break Stuff mp3 download Limp Bizkit - Break Stuff size:3.98MB - duration:02:50 Play download Limp Bizkit - Break Stuff - Live at Hellfest 2015 (Clisson, France) [Official Pro Shot] size:7.01MB - duration:04:59 Play Stream Break Stuff by LimpBizkit from desktop or your mobile device Genre Rock Comment by broly im really horney 2020-06-28T16:52:25Z Comment by Nightlight @coil-dave before you complain make sure you can spell. 2020-06 Break Stuff Back to album Significant Other by Limp Bizkit Preview: 30 sec only Quality: 256 kbps Size: 5.06 Mb Length: 2:46 Download Track Break Stuff It's just one of those days You don't really know why But you wanna Free Download Limp Bizkit Break Stuff Uncensored.mp3, Uploaded By:: Clauhaley, Size: , Duration: , Bitrate: 192 Kbps. 2009/10/05 Top Mp3 Charts Limp Bizkit mp3 download Limp Bizkit - Rollin' (Air Raid Vehicle) size:5.74MB - duration:04:05 Play download Limp Bizkit - Break Stuff size:3.98MB - duration:02:50 Play download Limp Bizkit - My Generation size:

Limp Bizkit’s debut long play titled Three Dollar Bill, Yall$ saw the light in 1997. That album let the band reach the world level, and by 2001 Three Dollar Bill, Yall$ was certified double platinum. The career of Limp Bizkit was picking foobar2000 1.5.1 / Dynamic Range Meter 1.1.1 ----- Analyzed: Limp Bizkit / Significant Other ----- DR Peak RMS Duration Track ----- DR10 -11.25 dB -24.68 dB 0:43 01-Intro DR11 -7.07 dB -20.15 dB 3:31 02-Just Like This DR10 -5.99 dB -19.60 dB 4:44 03-Nookie DR10 -8.15 dB -19.60 dB 2:43 04-Break Stuff DR10 -6.97 dB -20.28 dB 5:49 05-Re-Arranged … Limp Bizkit-Discography 1997-2008 MP3 320kbps Paradise Kinozal TV 6 Feb 4.4 GB 0 0 unknown Limp Bizkit - Break Stuff_H264_AAC_360p m4a 28 Jan 2 MB 0 0 unknown Limp Bizkit - Nookie_H264_AAC_360p m4a Today 3.1 Limp Bizkit の Significant Other に収録されている Break Stuff は無料で動画視聴ができます。アートワークや歌詞、テイストが似ているアーティストも表示されます。 "Break Stuff" is a song by the nu metal band Limp Bizkit. Break Stuff is the band's fourth and final single that resulted from their studio album Significant Other.The single was released alongside "N 2 Gether Now".It was reportedly a 2017/03/17 2014/04/18

The Last Of Us Part II is a sad game where plenty of sad things happen to its cast of sad characters. It also stars a traumatized character named Ellie who can pick up acoustic guitars she finds miraculously preserved throughout the ruins of post-apocalyptic America and, if the player is a real asshole, heap extra misery onto her plate by getting her to play bummer songs on them. アルカトラズからの脱出 - サンフランシスコ湾に浮かぶアルカトラズ島。そこには刑務所宇のキング、鉄壁のアルカトラズ Create anything you can imagine with Roblox's free and immersive creation engine. Start creating games today! 前スレ Limp Bizkit Pt.38 http://awabi.2ch.net/test/read.cgi/musice/1319395880 オフィシャル 1 :おっさん:2000/07/05(水) 15:05 7月4日でなかった。 ニューアルバム、いつでんの? 音楽ポータルサイト・歌詞の無料検索表示!最新j-pop曲・tv主題歌・アニメ・演歌から自作投稿歌詞まで、約300,000曲以上の歌詞が検索表示できます!インディーズとアーティストクリップもあるヨ!

2014/06/23

all songs limp bizkit free download - Limp Bizkit discography, Lucky Dube All Songs, Eminem songs offline|| all songs, and many more programs Limp BizkitのBreak Stuff。タイトル自体が「ぶっ壊せ!」という意味ですが、歌詞も強烈です。 暴力的な歌詞は実際の社会における暴力と結び付けられることが多く、99年のウッドストックの件など、Limp Bizkitもその代表格のような立ち位置にあります。その是非などについてはここでは触れませんが 2009/10/05 Limp Bizkit の Break Stuff や Take a Look Around の他にも多くの音楽が聴けます。 Limp Bizkit のトラック、アルバム、画像を検索できます。 リンプ・ビズキット(Limp Bizkit)は、アメリカのニュー・メタルバンド。 4thアルバム『リゾルツ・メイ・ヴァリー』のみバンドロゴをリンプビズキット(limpbizkit)とし Limp Bizkit - Break Stuff mp3 ready to donwload Download with VkontakteDJ Run downloaded file Download MP3 2019/06/30